Go daddy RU 728x90 hosting

Serverless go


Build a Multilingual, Language Translator Chat App with ...

Learn how to make serverless functions in Go with the CLI and new Golang language template built with love by the OpenFaaS community.

Apex serverless infrastructure built on AWS Lambda. A few prompts, the project's default Lambda IAM role & policy will be created, then you're ready to go.

Sponsored * Google pulls Nexus 6 March security update 2. Will the cloud go serverless. Taking advantage of pay-as-you-go pricing to make sure it was the right move.

Redis), or network file store (e. S3) to store state across requests or for further input to handle a request. They provide pure functional transformations of their input – or that they make use of a database, a cross-application cache (e. Given this restriction what are alternatives. Typically it means that FaaS functions are either naturally stateless – i.

How to create your own Domino XPages Server in the

If we go back to our click processing example from earlier what FaaS does is replace the click processing server (possibly a physical machine, but definitely a specific application) with something that doesn’t need a provisioned server, nor an application that is running all the time.

The term ‘Serverless’ is confusing since with such applications there are both server hardware and server processes running somewhere, but the difference to normal approaches is that the organization building and supporting a ‘Serverless’ application is not looking after the hardware or the processes – they are outsourcing this to a vendor.

We’ll also see more usage-patterns emerge. One of the standard examples for FaaS is media conversion: “whenever a large media file is stored to an S3 bucket then automatically run processes to create smaller versions in another bucket. ” But we need more usage-patterns to be catalogued in order to see if our particular use cases might be a good fit for a Serverless approach.

serverless go

Your spidey-sense may be buzzing about whether this is actually such a good idea, if so hold that thought – we’ll consider this further later. Beyond purely routing requests API Gateways may also perform authentication, input validation, response code mapping, etc.

GO SERVERLESS WITH AN EMBEDDED FILE SYSTEM. Reduces cost, complexity and latency by.

Azure Function supports a variety of languages (C#, F#, js, batch, PowerShell, Python, php and the list is growing). Serverless is all the rage, now you can get in on the action using R. In the following blog we describe how you can run R scripts on Azure Function using the R site extension. However, R is not natively supported.

Most usages of FaaS that I’ve seen so far are mostly about taking existing code / design ideas and ‘FaaSifying’ them – converting them to a set of stateless functions. This is powerful, but I also expect that we’ll start to see more abstractions and possibly languages using FaaS as an underlying implementation that give developers the benefits of FaaS without actually thinking about their application as a set of discrete functions.

With Function-as-a-Service utilities like AWS Lambda, you can further reduce your costs by ensuring you are only billed when the application is active. Many web applications are often idle, so this can prove to be significant cost savings. Function-as-a-Service runs on a pay-per-execution model, so you only pay for hosting and computing resources when your code is actually being called.

serverless go


10 responses on “Serverless go

  1. Red Hat proudly proclaims Red Hat Enterprise Linux OpenStack Platform. Red Hat Enterprise OpenStack Platform 7 is based on the OpenStack community “Kilo.

  2. When I try, the SQL tells me. How do you close the connection at the SQL Server. I have a backup I want to resotre to SQLExpress using SQL Management Studio Express.

  3. I moved all my domains from GoDaddy (were absolutely everything is an optional extra and the renewal prices are ridiculous), to Arvixe. I have had very stable uptime with my worst reading being 99. 96% uptime over the last 30 days. I have had some issues with the server hosting my sites. Support was fast to respond, courteous and the issues were all resolved very quickly. I find Arvixe to be very affordable for the packages offered.

  4. Why Do You Want This Job. Select the right answer: I would like to gain knowledge and experience in this line of work This job offers long-term career development This job is a real opportunity for me to grow and develop I can make an impact and bring benefit to the company This job will help me assume another level in my career.

  5. Open Source Billing promotes its support of online payment. Suggest me a invoicing and billing software which is good. Still in beta, this invoice creation and management application promises to be basic and secure.

  6. [mp4 @ 0x32c4ca0] Non-monotonous DTS in output stream 0:0; previous: 16107534, current: 6506363; changing to 16107535. This may result in incorrect timestamps in the output file. [mp4 @ 0x32c4ca0] Non-monotonous DTS in output stream 0:0; previous: 16107549, current: 6512363; changing to 16107550. [mp4 @ 0x32c4ca0] Non-monotonous DTS in output stream 0:0; previous: 16107376, current: 6443163; changing to 16107377. Mp4

    ffmpeg -i 02. [mp4 @ 0x32c4ca0] Non-monotonous DTS in output stream 0:0; previous: 16107439, current: 6468363; changing to 16107440. 100
      libpostproc    54. This may result in incorrect timestamps in the output file. [mp4 @ 0x32c4ca0] Non-monotonous DTS in output stream 0:0; previous: 16107487, current: 6487563; changing to 16107488. This may result in incorrect timestamps in the output file. [mp4 @ 0x32c4ca0] Non-monotonous DTS in output stream 0:0; previous: 16107488, current: 6487963; changing to 16107489. [mp4 @ 0x32c4ca0] Non-monotonous DTS in output stream 0:0; previous: 16107454, current: 6474363; changing to 16107455. This may result in incorrect timestamps in the output file. This may result in incorrect timestamps in the output file. [mp4 @ 0x32c4ca0] Non-monotonous DTS in output stream 0:0; previous: 16107524, current: 6502363; changing to 16107525. [mp4 @ 0x32c4ca0] Non-monotonous DTS in output stream 0:0; previous: 16107478, current: 6483963; changing to 16107479. [mp4 @ 0x32c4ca0] Non-monotonous DTS in output stream 0:0; previous: 16107456, current: 6475163; changing to 16107457. [mp4 @ 0x32c4ca0] Non-monotonous DTS in output stream 0:0; previous: 16107485, current: 6486763; changing to 16107486. [mp4 @ 0x32c4ca0] Non-monotonous DTS in output stream 0:0; previous: 16107547, current: 6511563; changing to 16107548. [mp4 @ 0x32c4ca0] Non-monotonous DTS in output stream 0:0; previous: 16107443, current: 6469963; changing to 16107444.   To fix they must be constant CBR of 163kbps to match

    maybe it’s also framerate mode one of them is variable and needs to be constant for the video. [mp4 @ 0x32c4ca0] Non-monotonous DTS in output stream 0:0; previous: 16107407, current: 6455563; changing to 16107408. [mp4 @ 0x32c4ca0] Non-monotonous DTS in output stream 0:0; previous: 16107507, current: 6495563; changing to 16107508. This may result in incorrect timestamps in the output file. This may result in incorrect timestamps in the output file. [mp4 @ 0x32c4ca0] Non-monotonous DTS in output stream 0:0; previous: 16107386, current: 6447163; changing to 16107387. [mp4 @ 0x32c4ca0] Non-monotonous DTS in output stream 0:0; previous: 16107391, current: 6449163; changing to 16107392. This may result in incorrect timestamps in the output file. [mp4 @ 0x32c4ca0] Non-monotonous DTS in output stream 0:0; previous: 16107416, current: 6459163; changing to 16107417. This may result in incorrect timestamps in the output file. 000000Z
          handler_name    : Alias Data Handler
    Output #0, avi, to ‘video_draft. This may result in incorrect timestamps in the output file. [mp4 @ 0x32c4ca0] Non-monotonous DTS in output stream 0:0; previous: 16107394, current: 6450363; changing to 16107395. This may result in incorrect timestamps in the output file. [mp4 @ 0x32c4ca0] Non-monotonous DTS in output stream 0:0; previous: 16107435, current: 6466763; changing to 16107436. [mp4 @ 0x32c4ca0] Non-monotonous DTS in output stream 0:0; previous: 16107446, current: 6471163; changing to 16107447. 9x   
    video:372728kB audio:11086kB subtitle:0kB other streams:0kB global headers:0kB muxing overhead: 0. [mp4 @ 0x32c4ca0] Non-monotonous DTS in output stream 0:0; previous: 16107365, current: 6438763; changing to 16107366. Mp4^C

    fmpeg -safe 0 -f concat -i files. [mp4 @ 0x32c4ca0] Non-monotonous DTS in output stream 0:0; previous: 16107393, current: 6449963; changing to 16107394. This may result in incorrect timestamps in the output file. This may result in incorrect timestamps in the output file. This may result in incorrect timestamps in the output file. This may result in incorrect timestamps in the output file. This may result in incorrect timestamps in the output file. This may result in incorrect timestamps in the output file. 100
      libavcodec     57. This may result in incorrect timestamps in the output file. This may result in incorrect timestamps in the output file. 142437%

    This makes the video about 22 minutes even though it should be about 9. [mp4 @ 0x32c4ca0] Non-monotonous DTS in output stream 0:0; previous: 16107378, current: 6443963; changing to 16107379. This may result in incorrect timestamps in the output file. [mp4 @ 0x32c4ca0] Non-monotonous DTS in output stream 0:0; previous: 16107539, current: 6508363; changing to 16107540. This may result in incorrect timestamps in the output file. [mp4 @ 0x32c4ca0] Non-monotonous DTS in output stream 0:0; previous: 16107372, current: 6441563; changing to 16107373. This may result in incorrect timestamps in the output file. 100
      libswresample   2. This may result in incorrect timestamps in the output file. This may result in incorrect timestamps in the output file. This may result in incorrect timestamps in the output file. [mp4 @ 0x32c4ca0] Non-monotonous DTS in output stream 0:0; previous: 16107369, current: 6440363; changing to 16107370. This may result in incorrect timestamps in the output file. This may result in incorrect timestamps in the output file. [mp4 @ 0x32c4ca0] Non-monotonous DTS in output stream 0:0; previous: 16107501, current: 6493163; changing to 16107502. [mp4 @ 0x32c4ca0] Non-monotonous DTS in output stream 0:0; previous: 16107396, current: 6451163; changing to 16107397. [mp4 @ 0x32c4ca0] Non-monotonous DTS in output stream 0:0; previous: 16107491, current: 6489163; changing to 16107492. This may result in incorrect timestamps in the output file. [mp4 @ 0x32c4ca0] Non-monotonous DTS in output stream 0:0; previous: 16107508, current: 6495963; changing to 16107509. [mp4 @ 0x32c4ca0] Non-monotonous DTS in output stream 0:0; previous: 16107513, current: 6497963; changing to 16107514. This may result in incorrect timestamps in the output file. [mp4 @ 0x32c4ca0] Non-monotonous DTS in output stream 0:0; previous: 16107509, current: 6496363; changing to 16107510. [mp4 @ 0x32c4ca0] Non-monotonous DTS in output stream 0:0; previous: 16107489, current: 6488363; changing to 16107490. Mp4 -filter_complex concat=n=4:v=1:a=0 -f MOV output. [mp4 @ 0x32c4ca0] Non-monotonous DTS in output stream 0:0; previous: 16107430, current: 6464763; changing to 16107431. This may result in incorrect timestamps in the output file. [mp4 @ 0x32c4ca0] Non-monotonous DTS in output stream 0:0; previous: 16107460, current: 6476763; changing to 16107461. [mp4 @ 0x32c4ca0] Non-monotonous DTS in output stream 0:0; previous: 16107555, current: 6514763; changing to 16107556. [mp4 @ 0x32c4ca0] Non-monotonous DTS in output stream 0:0; previous: 16107532, current: 6505563; changing to 16107533. This may result in incorrect timestamps in the output file. [mp4 @ 0x32c4ca0] Non-monotonous DTS in output stream 0:0; previous: 16107499, current: 6492363; changing to 16107500. This may result in incorrect timestamps in the output file. This may result in incorrect timestamps in the output file. This may result in incorrect timestamps in the output file. 0 Lsize=  381293kB time=00:22:23. This may result in incorrect timestamps in the output file. 6x   
    frame=16287 fps=1824 q=-1. This may result in incorrect timestamps in the output file. 100
    [mov,mp4,m4a,3gp,3g2,mj2 @ 0x3f22100] Auto-inserting h264_mp4toannexb bitstream filter
    Input #0, concat, from ‘files. This may result in incorrect timestamps in the output file. This may result in incorrect timestamps in the output file. This may result in incorrect timestamps in the output file. [mp4 @ 0x32c4ca0] Non-monotonous DTS in output stream 0:0; previous: 16107490, current: 6488763; changing to 16107491. [mp4 @ 0x32c4ca0] Non-monotonous DTS in output stream 0:0; previous: 16107481, current: 6485163; changing to 16107482. 362498%

    [mov,mp4,m4a,3gp,3g2,mj2 @ 0x2af7da0] Found duplicated MOOV Atom. [mp4 @ 0x32c4ca0] Non-monotonous DTS in output stream 0:0; previous: 16107527, current: 6503563; changing to 16107528. This is because the main video is CBR audio and the other ones being joined at variable. [mp4 @ 0x32c4ca0] Non-monotonous DTS in output stream 0:0; previous: 16107522, current: 6501563; changing to 16107523. This may result in incorrect timestamps in the output file. This may result in incorrect timestamps in the output file. 100
      libavresample   3. Txt -c copy video_draft. [mp4 @ 0x32c4ca0] Non-monotonous DTS in output stream 0:0; previous: 16107546, current: 6511163; changing to 16107547. [mp4 @ 0x32c4ca0] Non-monotonous DTS in output stream 0:0; previous: 16107437, current: 6467563; changing to 16107438. [mp4 @ 0x32c4ca0] Non-monotonous DTS in output stream 0:0; previous: 16107466, current: 6479163; changing to 16107467. [mp4 @ 0x32c4ca0] Non-monotonous DTS in output stream 0:0; previous: 16107452, current: 6473563; changing to 16107453. ] for help
    [mov,mp4,m4a,3gp,3g2,mj2 @ 0x3fe3be0] Auto-inserting h264_mp4toannexb bitstream filter
    [mov,mp4,m4a,3gp,3g2,mj2 @ 0x3fe3be0] Auto-inserting h264_mp4toannexb bitstream filtered=61. This may result in incorrect timestamps in the output file. This may result in incorrect timestamps in the output file. This may result in incorrect timestamps in the output file. This may result in incorrect timestamps in the output file. [mp4 @ 0x32c4ca0] Non-monotonous DTS in output stream 0:0; previous: 16107406, current: 6455163; changing to 16107407. This may result in incorrect timestamps in the output file. Txt’:
      Duration: N/A, start: 0. [mp4 @ 0x32c4ca0] Non-monotonous DTS in output stream 0:0; previous: 16107423, current: 6461963; changing to 16107424. [mp4 @ 0x32c4ca0] Non-monotonous DTS in output stream 0:0; previous: 16107530, current: 6504763; changing to 16107531. This may result in incorrect timestamps in the output file. This may result in incorrect timestamps in the output file. This may result in incorrect timestamps in the output file. [mp4 @ 0x32c4ca0] Non-monotonous DTS in output stream 0:0; previous: 16107382, current: 6445563; changing to 16107383. This may result in incorrect timestamps in the output file. [mp4 @ 0x32c4ca0] Non-monotonous DTS in output stream 0:0; previous: 16107364, current: 6438363; changing to 16107365. This may result in incorrect timestamps in the output file. This may result in incorrect timestamps in the output file. [mp4 @ 0x32c4ca0] Non-monotonous DTS in output stream 0:0; previous: 16107468, current: 6479963; changing to 16107469. [mp4 @ 0x32c4ca0] Non-monotonous DTS in output stream 0:0; previous: 16107433, current: 6465963; changing to 16107434. [mp4 @ 0x32c4ca0] Non-monotonous DTS in output stream 0:0; previous: 16107476, current: 6483163; changing to 16107477. [mp4 @ 0x32c4ca0] Non-monotonous DTS in output stream 0:0; previous: 16107451, current: 6473163; changing to 16107452. [mp4 @ 0x32c4ca0] Non-monotonous DTS in output stream 0:0; previous: 16107529, current: 6504363; changing to 16107530. [mp4 @ 0x32c4ca0] Non-monotonous DTS in output stream 0:0; previous: 16107415, current: 6458763; changing to 16107416. [mp4 @ 0x32c4ca0] Non-monotonous DTS in output stream 0:0; previous: 16107554, current: 6514363; changing to 16107555. This may result in incorrect timestamps in the output file. This may result in incorrect timestamps in the output file. This may result in incorrect timestamps in the output file. Use the -crf flag instead of -r

    Frame rate mode                          : Variable

    Change FPS to 29. This may result in incorrect timestamps in the output file. [mp4 @ 0x32c4ca0] Non-monotonous DTS in output stream 0:0; previous: 16107370, current: 6440763; changing to 16107371. This may result in incorrect timestamps in the output file. This may result in incorrect timestamps in the output file. [mp4 @ 0x32c4ca0] Non-monotonous DTS in output stream 0:0; previous: 16107388, current: 6447963; changing to 16107389. This may result in incorrect timestamps in the output file. This may result in incorrect timestamps in the output file. [mp4 @ 0x32c4ca0] Non-monotonous DTS in output stream 0:0; previous: 16107390, current: 6448763; changing to 16107391. [mp4 @ 0x32c4ca0] Non-monotonous DTS in output stream 0:0; previous: 16107511, current: 6497163; changing to 16107512. This may result in incorrect timestamps in the output file. This may result in incorrect timestamps in the output file. [mp4 @ 0x32c4ca0] Non-monotonous DTS in output stream 0:0; previous: 16107497, current: 6491563; changing to 16107498. This may result in incorrect timestamps in the output file. This may result in incorrect timestamps in the output file. [mp4 @ 0x32c4ca0] Non-monotonous DTS in output stream 0:0; previous: 16107419, current: 6460363; changing to 16107420. [mp4 @ 0x32c4ca0] Non-monotonous DTS in output stream 0:0; previous: 16107458, current: 6475963; changing to 16107459. This may result in incorrect timestamps in the output file. This may result in incorrect timestamps in the output file. [mp4 @ 0x32c4ca0] Non-monotonous DTS in output stream 0:0; previous: 16107541, current: 6509163; changing to 16107542. [mp4 @ 0x32c4ca0] Non-monotonous DTS in output stream 0:0; previous: 16107544, current: 6510363; changing to 16107545. This may result in incorrect timestamps in the output file. [mp4 @ 0x32c4ca0] Non-monotonous DTS in output stream 0:0; previous: 16107548, current: 6511963; changing to 16107549. This may result in incorrect timestamps in the output file. [mp4 @ 0x32c4ca0] Non-monotonous DTS in output stream 0:0; previous: 16107398, current: 6451963; changing to 16107399. This may result in incorrect timestamps in the output file. This may result in incorrect timestamps in the output file. This may result in incorrect timestamps in the output file. This may result in incorrect timestamps in the output file. Mp4 -filter_complex concat=n=3:v=1:a=0 -acodec copy -f h264 output. [mp4 @ 0x32c4ca0] Non-monotonous DTS in output stream 0:0; previous: 16107410, current: 6456763; changing to 16107411. This may result in incorrect timestamps in the output file. [mp4 @ 0x32c4ca0] Non-monotonous DTS in output stream 0:0; previous: 16107512, current: 6497563; changing to 16107513. [mp4 @ 0x32c4ca0] Non-monotonous DTS in output stream 0:0; previous: 16107550, current: 6512763; changing to 16107551. Avi
    ffmpeg version 3. This may result in incorrect timestamps in the output file. 100
        Stream #0:0(eng): Video: h264 (Main) (avc1 / 0x31637661), yuv420p(tv, bt709), 1920×1080, q=2-31, 1967 kb/s, 30 fps, 30 tbr, 60 tbn, 60 tbc
        Metadata:
          creation_time   : 2017-06-30T22:34:32. [mp4 @ 0x32c4ca0] Non-monotonous DTS in output stream 0:0; previous: 16107377, current: 6443563; changing to 16107378. [mp4 @ 0x32c4ca0] Non-monotonous DTS in output stream 0:0; previous: 16107401, current: 6453163; changing to 16107402. [mp4 @ 0x32c4ca0] Non-monotonous DTS in output stream 0:0; previous: 16107405, current: 6454763; changing to 16107406. This may result in incorrect timestamps in the output file. [mp4 @ 0x32c4ca0] Non-monotonous DTS in output stream 0:0; previous: 16107387, current: 6447563; changing to 16107388. This may result in incorrect timestamps in the output file. This may result in incorrect timestamps in the output file. Mp4 -filter_complex concat=n=3:v=1:a=1 output. 0 Lsize=  385206kB time=00:09:03. [mp4 @ 0x32c4ca0] Non-monotonous DTS in output stream 0:0; previous: 16107444, current: 6470363; changing to 16107445. This may result in incorrect timestamps in the output file. [mp4 @ 0x32c4ca0] Non-monotonous DTS in output stream 0:0; previous: 16107483, current: 6485963; changing to 16107484. This may result in incorrect timestamps in the output file. This may result in incorrect timestamps in the output file. This may result in incorrect timestamps in the output file. Mp4 -vcodec copy  -acodec libfdk_aac -ab 163k -crf 29. [mp4 @ 0x32c4ca0] Non-monotonous DTS in output stream 0:0; previous: 16107463, current: 6477963; changing to 16107464. [mp4 @ 0x32c4ca0] Non-monotonous DTS in output stream 0:0; previous: 16107540, current: 6508763; changing to 16107541. [mp4 @ 0x32c4ca0] Non-monotonous DTS in output stream 0:0; previous: 16107543, current: 6509963; changing to 16107544. This may result in incorrect timestamps in the output file. This may result in incorrect timestamps in the output file. This may result in incorrect timestamps in the output file. [mp4 @ 0x32c4ca0] Non-monotonous DTS in output stream 0:0; previous: 16107384, current: 6446363; changing to 16107385. Ffmpeg -i $intro -i $outputfile -i $outtro
    -filter_complex “[0:v:0] [0:a:0] [1:v:0] [1:a:0] [2:v:0] [2:a:0] concat=n=3:v=1:a=1 [v] [a]”
    -map “[v]” -map “[a]” $outputfile-branded-final. This may result in incorrect timestamps in the output file. This may result in incorrect timestamps in the output file. This may result in incorrect timestamps in the output file. This may result in incorrect timestamps in the output file. [mp4 @ 0x32c4ca0] Non-monotonous DTS in output stream 0:0; previous: 16107472, current: 6481563; changing to 16107473. This may result in incorrect timestamps in the output file. [mp4 @ 0x32c4ca0] Non-monotonous DTS in output stream 0:0; previous: 16107518, current: 6499963; changing to 16107519. This may result in incorrect timestamps in the output file. [mp4 @ 0x32c4ca0] Non-monotonous DTS in output stream 0:0; previous: 16107498, current: 6491963; changing to 16107499. [mp4 @ 0x32c4ca0] Non-monotonous DTS in output stream 0:0; previous: 16107400, current: 6452763; changing to 16107401. This may result in incorrect timestamps in the output file. This may result in incorrect timestamps in the output file. Skipped it

    [mov,mp4,m4a,3gp,3g2,mj2 @ 0x33639c0] Auto-inserting h264_mp4toannexb bitstream filter
    [mov,mp4,m4a,3gp,3g2,mj2 @ 0x33639c0] Auto-inserting h264_mp4toannexb bitstream filtered= 153x   
    [mp4 @ 0x32c4ca0] Non-monotonous DTS in output stream 0:0; previous: 16107362, current: 6437563; changing to 16107363. [mp4 @ 0x32c4ca0] Non-monotonous DTS in output stream 0:0; previous: 16107424, current: 6462363; changing to 16107425. This may result in incorrect timestamps in the output file. [mp4 @ 0x32c4ca0] Non-monotonous DTS in output stream 0:0; previous: 16107417, current: 6459563; changing to 16107418. [mp4 @ 0x32c4ca0] Non-monotonous DTS in output stream 0:0; previous: 16107470, current: 6480763; changing to 16107471. 3)
      configuration: –extra-libs=-ldl –prefix=/opt/ffmpeg –mandir=/usr/share/man –enable-avresample –disable-debug –enable-nonfree –enable-gpl –enable-version3 –enable-libopencore-amrnb –enable-libopencore-amrwb –disable-decoder=amrnb –disable-decoder=amrwb –enable-libpulse –enable-libfreetype –enable-gnutls –enable-libx264 –enable-libx265 –enable-libfdk-aac –enable-libvorbis –enable-libmp3lame –enable-libopus –enable-libvpx –enable-libspeex –enable-libass –enable-avisynth –enable-libsoxr –enable-libxvid –enable-libvidstab –enable-libwavpack –enable-nvenc
      libavutil      55. [mp4 @ 0x32c4ca0] Non-monotonous DTS in output stream 0:0; previous: 16107528, current: 6503963; changing to 16107529. Mp4 -vcodec copy  -acodec libfdk_aac -ab 163k -crf 29. [mp4 @ 0x32c4ca0] Non-monotonous DTS in output stream 0:0; previous: 16107477, current: 6483563; changing to 16107478. This may result in incorrect timestamps in the output file. [mp4 @ 0x32c4ca0] Non-monotonous DTS in output stream 0:0; previous: 16107427, current: 6463563; changing to 16107428. [mp4 @ 0x32c4ca0] Non-monotonous DTS in output stream 0:0; previous: 16107495, current: 6490763; changing to 16107496. Mp4 -vcodec copy -acodec libfdk_aac -ab 163k -r 29. 100
      libavformat    57. [mp4 @ 0x32c4ca0] Non-monotonous DTS in output stream 0:0; previous: 16107408, current: 6455963; changing to 16107409. [mp4 @ 0x32c4ca0] Non-monotonous DTS in output stream 0:0; previous: 16107551, current: 6513163; changing to 16107552. Mp4 -i $outtro
    > -filter_complex “[0:v:0] [0:a:0] [1:v:0] [1:a:0] [2:v:0] [2:a:0] concat=n=3:v=1:a=1 [v] [a]”
    > -map “[v]” -map “[a]” $outputfile-branded-final. This may result in incorrect timestamps in the output file. This may result in incorrect timestamps in the output file. This may result in incorrect timestamps in the output file. [mp4 @ 0x32c4ca0] Non-monotonous DTS in output stream 0:0; previous: 16107453, current: 6473963; changing to 16107454. This may result in incorrect timestamps in the output file. [mp4 @ 0x32c4ca0] Non-monotonous DTS in output stream 0:0; previous: 16107506, current: 6495163; changing to 16107507. This may result in incorrect timestamps in the output file. This may result in incorrect timestamps in the output file. [mp4 @ 0x32c4ca0] Non-monotonous DTS in output stream 0:0; previous: 16107412, current: 6457563; changing to 16107413. [mp4 @ 0x32c4ca0] Non-monotonous DTS in output stream 0:0; previous: 16107450, current: 6472763; changing to 16107451. This may result in incorrect timestamps in the output file. This may result in incorrect timestamps in the output file. This may result in incorrect timestamps in the output file. This may result in incorrect timestamps in the output file. This may result in incorrect timestamps in the output file. This may result in incorrect timestamps in the output file. [mp4 @ 0x32c4ca0] Non-monotonous DTS in output stream 0:0; previous: 16107434, current: 6466363; changing to 16107435. This may result in incorrect timestamps in the output file. [mp4 @ 0x32c4ca0] Non-monotonous DTS in output stream 0:0; previous: 16107514, current: 6498363; changing to 16107515. [mp4 @ 0x32c4ca0] Non-monotonous DTS in output stream 0:0; previous: 16107535, current: 6506763; changing to 16107536. This may result in incorrect timestamps in the output file. This may result in incorrect timestamps in the output file. This may result in incorrect timestamps in the output file. [mp4 @ 0x32c4ca0] Non-monotonous DTS in output stream 0:0; previous: 16107467, current: 6479563; changing to 16107468. 000000, bitrate: 2284 kb/s
        Stream #0:0(eng): Video: h264 (Main) (avc1 / 0x31637661), yuv420p(tv, bt709), 1920×1080, 1967 kb/s, 30 fps, 30 tbr, 30k tbn, 60 tbc
        Metadata:
          creation_time   : 2017-06-30T22:34:32. This may result in incorrect timestamps in the output file. This may result in incorrect timestamps in the output file. [mp4 @ 0x32c4ca0] Non-monotonous DTS in output stream 0:0; previous: 16107436, current: 6467163; changing to 16107437. [mp4 @ 0x32c4ca0] Non-monotonous DTS in output stream 0:0; previous: 16107373, current: 6441963; changing to 16107374. [mp4 @ 0x32c4ca0] Non-monotonous DTS in output stream 0:0; previous: 16107503, current: 6493963; changing to 16107504. [mp4 @ 0x32c4ca0] Non-monotonous DTS in output stream 0:0; previous: 16107479, current: 6484363; changing to 16107480. [mp4 @ 0x32c4ca0] Non-monotonous DTS in output stream 0:0; previous: 16107492, current: 6489563; changing to 16107493. [mp4 @ 0x32c4ca0] Non-monotonous DTS in output stream 0:0; previous: 16107533, current: 6505963; changing to 16107534. [mp4 @ 0x32c4ca0] Non-monotonous DTS in output stream 0:0; previous: 16107521, current: 6501163; changing to 16107522. This may result in incorrect timestamps in the output file. [mp4 @ 0x32c4ca0] Non-monotonous DTS in output stream 0:0; previous: 16107395, current: 6450763; changing to 16107396. This may result in incorrect timestamps in the output file. This may result in incorrect timestamps in the output file. [mp4 @ 0x32c4ca0] Non-monotonous DTS in output stream 0:0; previous: 16107482, current: 6485563; changing to 16107483. This may result in incorrect timestamps in the output file. This may result in incorrect timestamps in the output file. This may result in incorrect timestamps in the output file. This may result in incorrect timestamps in the output file. [mp4 @ 0x32c4ca0] Non-monotonous DTS in output stream 0:0; previous: 16107371, current: 6441163; changing to 16107372. [mp4 @ 0x32c4ca0] Non-monotonous DTS in output stream 0:0; previous: 16107519, current: 6500363; changing to 16107520. This may result in incorrect timestamps in the output file. This may result in incorrect timestamps in the output file. This may result in incorrect timestamps in the output file. This may result in incorrect timestamps in the output file. This may result in incorrect timestamps in the output file. [mp4 @ 0x32c4ca0] Non-monotonous DTS in output stream 0:0; previous: 16107375, current: 6442763; changing to 16107376. [mp4 @ 0x32c4ca0] Non-monotonous DTS in output stream 0:0; previous: 16107552, current: 6513563; changing to 16107553. This may result in incorrect timestamps in the output file. This may result in incorrect timestamps in the output file. This may result in incorrect timestamps in the output file. [mp4 @ 0x32c4ca0] Non-monotonous DTS in output stream 0:0; previous: 16107449, current: 6472363; changing to 16107450. This may result in incorrect timestamps in the output file. [mp4 @ 0x32c4ca0] Non-monotonous DTS in output stream 0:0; previous: 16107422, current: 6461563; changing to 16107423. Mp4 -y

    ffmpeg -threads 12  -i 02. This may result in incorrect timestamps in the output file. [mp4 @ 0x32c4ca0] Non-monotonous DTS in output stream 0:0; previous: 16107447, current: 6471563; changing to 16107448. This may result in incorrect timestamps in the output file. 97 or change the “-r 29. [mp4 @ 0x32c4ca0] Non-monotonous DTS in output stream 0:0; previous: 16107389, current: 6448363; changing to 16107390. [mp4 @ 0x32c4ca0] Non-monotonous DTS in output stream 0:0; previous: 16107420, current: 6460763; changing to 16107421. This may result in incorrect timestamps in the output file. [mp4 @ 0x32c4ca0] Non-monotonous DTS in output stream 0:0; previous: 16107431, current: 6465163; changing to 16107432. This may result in incorrect timestamps in the output file. [mp4 @ 0x32c4ca0] Non-monotonous DTS in output stream 0:0; previous: 16107505, current: 6494763; changing to 16107506. [mp4 @ 0x32c4ca0] Non-monotonous DTS in output stream 0:0; previous: 16107545, current: 6510763; changing to 16107546. [mp4 @ 0x32c4ca0] Non-monotonous DTS in output stream 0:0; previous: 16107438, current: 6467963; changing to 16107439. This may result in incorrect timestamps in the output file. [mp4 @ 0x32c4ca0] Non-monotonous DTS in output stream 0:0; previous: 16107500, current: 6492763; changing to 16107501. [mp4 @ 0x32c4ca0] Non-monotonous DTS in output stream 0:0; previous: 16107475, current: 6482763; changing to 16107476. Mp4 -vcodec h264  -acodec libfdk_aac -ab 163k -vf “fps=29. This may result in incorrect timestamps in the output file. This may result in incorrect timestamps in the output file. [mp4 @ 0x32c4ca0] Non-monotonous DTS in output stream 0:0; previous: 16107425, current: 6462763; changing to 16107426. Mp4

    ffmpeg -i 02. [mp4 @ 0x32c4ca0] Non-monotonous DTS in output stream 0:0; previous: 16107523, current: 6501963; changing to 16107524. This may result in incorrect timestamps in the output file. This may result in incorrect timestamps in the output file. This may result in incorrect timestamps in the output file. [mp4 @ 0x32c4ca0] Non-monotonous DTS in output stream 0:0; previous: 16107494, current: 6490363; changing to 16107495. [mp4 @ 0x32c4ca0] Non-monotonous DTS in output stream 0:0; previous: 16107442, current: 6469563; changing to 16107443. [mp4 @ 0x32c4ca0] Non-monotonous DTS in output stream 0:0; previous: 16107496, current: 6491163; changing to 16107497. [mp4 @ 0x32c4ca0] Non-monotonous DTS in output stream 0:0; previous: 16107536, current: 6507163; changing to 16107537. This may result in incorrect timestamps in the output file. [mp4 @ 0x32c4ca0] Non-monotonous DTS in output stream 0:0; previous: 16107392, current: 6449563; changing to 16107393. [mp4 @ 0x32c4ca0] Non-monotonous DTS in output stream 0:0; previous: 16107525, current: 6502763; changing to 16107526. This may result in incorrect timestamps in the output file. [mp4 @ 0x32c4ca0] Non-monotonous DTS in output stream 0:0; previous: 16107429, current: 6464363; changing to 16107430. [mp4 @ 0x32c4ca0] Non-monotonous DTS in output stream 0:0; previous: 16107380, current: 6444763; changing to 16107381. [mp4 @ 0x32c4ca0] Non-monotonous DTS in output stream 0:0; previous: 16107455, current: 6474763; changing to 16107456. This may result in incorrect timestamps in the output file. [mp4 @ 0x32c4ca0] Non-monotonous DTS in output stream 0:0; previous: 16107418, current: 6459963; changing to 16107419. [mp4 @ 0x32c4ca0] Non-monotonous DTS in output stream 0:0; previous: 16107440, current: 6468763; changing to 16107441. This may result in incorrect timestamps in the output file. [mp4 @ 0x32c4ca0] Non-monotonous DTS in output stream 0:0; previous: 16107381, current: 6445163; changing to 16107382. [mp4 @ 0x32c4ca0] Non-monotonous DTS in output stream 0:0; previous: 16107411, current: 6457163; changing to 16107412. [mp4 @ 0x32c4ca0] Non-monotonous DTS in output stream 0:0; previous: 16107374, current: 6442363; changing to 16107375. [mp4 @ 0x32c4ca0] Non-monotonous DTS in output stream 0:0; previous: 16107484, current: 6486363; changing to 16107485. [mp4 @ 0x32c4ca0] Non-monotonous DTS in output stream 0:0; previous: 16107486, current: 6487163; changing to 16107487. [mp4 @ 0x32c4ca0] Non-monotonous DTS in output stream 0:0; previous: 16107432, current: 6465563; changing to 16107433. This may result in incorrect timestamps in the output file. [mp4 @ 0x32c4ca0] Non-monotonous DTS in output stream 0:0; previous: 16107366, current: 6439163; changing to 16107367. [mp4 @ 0x32c4ca0] Non-monotonous DTS in output stream 0:0; previous: 16107385, current: 6446763; changing to 16107386. This may result in incorrect timestamps in the output file. [mp4 @ 0x32c4ca0] Non-monotonous DTS in output stream 0:0; previous: 16107471, current: 6481163; changing to 16107472. This may result in incorrect timestamps in the output file. [mp4 @ 0x32c4ca0] Non-monotonous DTS in output stream 0:0; previous: 16107457, current: 6475563; changing to 16107458. [mp4 @ 0x32c4ca0] Non-monotonous DTS in output stream 0:0; previous: 16107399, current: 6452363; changing to 16107400. This may result in incorrect timestamps in the output file. This may result in incorrect timestamps in the output file. [mp4 @ 0x32c4ca0] Non-monotonous DTS in output stream 0:0; previous: 16107414, current: 6458363; changing to 16107415. This may result in incorrect timestamps in the output file. This may result in incorrect timestamps in the output file. This may result in incorrect timestamps in the output file. This may result in incorrect timestamps in the output file. This may result in incorrect timestamps in the output file. [mp4 @ 0x32c4ca0] Non-monotonous DTS in output stream 0:0; previous: 16107516, current: 6499163; changing to 16107517. [mp4 @ 0x32c4ca0] Non-monotonous DTS in output stream 0:0; previous: 16107553, current: 6513963; changing to 16107554. This may result in incorrect timestamps in the output file. 97 fps and sets aac audio to 163kbit constant
    ffmpeg -i 02. [mp4 @ 0x32c4ca0] Non-monotonous DTS in output stream 0:0; previous: 16107459, current: 6476363; changing to 16107460. This may result in incorrect timestamps in the output file. This may result in incorrect timestamps in the output file. [mp4 @ 0x32c4ca0] Non-monotonous DTS in output stream 0:0; previous: 16107383, current: 6445963; changing to 16107384. 000000Z
          handler_name    : Alias Data Handler
          encoder         : AVC Coding
        Stream #0:1(eng): Audio: aac (LC) ([255][0][0][0] / 0x00FF), 48000 Hz, stereo, fltp, 317 kb/s
        Metadata:
          creation_time   : 2017-06-30T22:34:32. 100
      libavdevice    57. [mp4 @ 0x32c4ca0] Non-monotonous DTS in output stream 0:0; previous: 16107428, current: 6463963; changing to 16107429. This may result in incorrect timestamps in the output file. This may result in incorrect timestamps in the output file. [mp4 @ 0x32c4ca0] Non-monotonous DTS in output stream 0:0; previous: 16107426, current: 6463163; changing to 16107427. 000000Z
          handler_name    : Alias Data Handler
    Stream mapping:
      Stream #0:0 -> #0:0 (copy)
      Stream #0:1 -> #0:1 (copy)
    Press [q] to stop, [. [mp4 @ 0x32c4ca0] Non-monotonous DTS in output stream 0:0; previous: 16107517, current: 6499563; changing to 16107518. This may result in incorrect timestamps in the output file. [mp4 @ 0x32c4ca0] Non-monotonous DTS in output stream 0:0; previous: 16107542, current: 6509563; changing to 16107543. This may result in incorrect timestamps in the output file. [mp4 @ 0x32c4ca0] Non-monotonous DTS in output stream 0:0; previous: 16107474, current: 6482363; changing to 16107475. This may result in incorrect timestamps in the output file. [mp4 @ 0x32c4ca0] Non-monotonous DTS in output stream 0:0; previous: 16107465, current: 6478763; changing to 16107466. This may result in incorrect timestamps in the output file. [mp4 @ 0x32c4ca0] Non-monotonous DTS in output stream 0:0; previous: 16107473, current: 6481963; changing to 16107474. [mp4 @ 0x32c4ca0] Non-monotonous DTS in output stream 0:0; previous: 16107421, current: 6461163; changing to 16107422. [mp4 @ 0x32c4ca0] Non-monotonous DTS in output stream 0:0; previous: 16107413, current: 6457963; changing to 16107414. This may result in incorrect timestamps in the output file. This may result in incorrect timestamps in the output file. [mp4 @ 0x32c4ca0] Non-monotonous DTS in output stream 0:0; previous: 16107462, current: 6477563; changing to 16107463. This may result in incorrect timestamps in the output file. This may result in incorrect timestamps in the output file. [mp4 @ 0x32c4ca0] Non-monotonous DTS in output stream 0:0; previous: 16107469, current: 6480363; changing to 16107470. [mp4 @ 0x32c4ca0] Non-monotonous DTS in output stream 0:0; previous: 16107363, current: 6437963; changing to 16107364. Mp4

    ffmpeg -i $intro -i uservideoRendered. 100
      libavfilter     6. [mp4 @ 0x32c4ca0] Non-monotonous DTS in output stream 0:0; previous: 16107515, current: 6498763; changing to 16107516. This may result in incorrect timestamps in the output file. This may result in incorrect timestamps in the output file. [mp4 @ 0x32c4ca0] Non-monotonous DTS in output stream 0:0; previous: 16107526, current: 6503163; changing to 16107527. This may result in incorrect timestamps in the output file. This may result in incorrect timestamps in the output file. This may result in incorrect timestamps in the output file. This may result in incorrect timestamps in the output file. [mp4 @ 0x32c4ca0] Non-monotonous DTS in output stream 0:0; previous: 16107368, current: 6439963; changing to 16107369. This may result in incorrect timestamps in the output file. Mp4

    ffmpeg -i 02. This may result in incorrect timestamps in the output file. [mp4 @ 0x32c4ca0] Non-monotonous DTS in output stream 0:0; previous: 16107502, current: 6493563; changing to 16107503. This may result in incorrect timestamps in the output file. This may result in incorrect timestamps in the output file. [mp4 @ 0x32c4ca0] Non-monotonous DTS in output stream 0:0; previous: 16107504, current: 6494363; changing to 16107505. This may result in incorrect timestamps in the output file. [mp4 @ 0x32c4ca0] Non-monotonous DTS in output stream 0:0; previous: 16107538, current: 6507963; changing to 16107539. This may result in incorrect timestamps in the output file. 1 Copyright (c) 2000-2017 the FFmpeg developers
      built with gcc 4. [mp4 @ 0x32c4ca0] Non-monotonous DTS in output stream 0:0; previous: 16107403, current: 6453963; changing to 16107404. This may result in incorrect timestamps in the output file. [mp4 @ 0x32c4ca0] Non-monotonous DTS in output stream 0:0; previous: 16107404, current: 6454363; changing to 16107405. 97” to whatever frame rate you want
    ffmpeg -i 02. This may result in incorrect timestamps in the output file. [mp4 @ 0x32c4ca0] Non-monotonous DTS in output stream 0:0; previous: 16107531, current: 6505163; changing to 16107532. This may result in incorrect timestamps in the output file. This may result in incorrect timestamps in the output file.   0
      libswscale      4. This may result in incorrect timestamps in the output file. [mp4 @ 0x32c4ca0] Non-monotonous DTS in output stream 0:0; previous: 16107409, current: 6456363; changing to 16107410. [mp4 @ 0x32c4ca0] Non-monotonous DTS in output stream 0:0; previous: 16107379, current: 6444363; changing to 16107380. [mp4 @ 0x32c4ca0] Non-monotonous DTS in output stream 0:0; previous: 16107445, current: 6470763; changing to 16107446. [mp4 @ 0x32c4ca0] Non-monotonous DTS in output stream 0:0; previous: 16107520, current: 6500763; changing to 16107521. This may result in incorrect timestamps in the output file. [mp4 @ 0x32c4ca0] Non-monotonous DTS in output stream 0:0; previous: 16107510, current: 6496763; changing to 16107511. This may result in incorrect timestamps in the output file. This may result in incorrect timestamps in the output file. 000000Z
          handler_name    : Alias Data Handler
          encoder         : AVC Coding
        Stream #0:1(eng): Audio: aac (LC) (mp4a / 0x6134706D), 48000 Hz, stereo, fltp, 317 kb/s
        Metadata:
          creation_time   : 2017-06-30T22:34:32. [mp4 @ 0x32c4ca0] Non-monotonous DTS in output stream 0:0; previous: 16107397, current: 6451563; changing to 16107398. This may result in incorrect timestamps in the output file. This may result in incorrect timestamps in the output file. 7kbits/s speed= 150x   
    video:369967kB audio:10784kB subtitle:0kB other streams:0kB global headers:0kB muxing overhead: 0. [mp4 @ 0x32c4ca0] Non-monotonous DTS in output stream 0:0; previous: 16107367, current: 6439563; changing to 16107368. [mp4 @ 0x32c4ca0] Non-monotonous DTS in output stream 0:0; previous: 16107493, current: 6489963; changing to 16107494. This may result in incorrect timestamps in the output file. [mp4 @ 0x32c4ca0] Non-monotonous DTS in output stream 0:0; previous: 16107464, current: 6478363; changing to 16107465. [mp4 @ 0x32c4ca0] Non-monotonous DTS in output stream 0:0; previous: 16107402, current: 6453563; changing to 16107403. [mp4 @ 0x32c4ca0] Non-monotonous DTS in output stream 0:0; previous: 16107537, current: 6507563; changing to 16107538. Mp4 -y
    #above works but video is unplayable and time is all wrong and no audio

    change concat=n=3:v=1:a=0 to concat=n=3:v=1:a=1

    ffmpeg -threads 12  -i 02. [mp4 @ 0x32c4ca0] Non-monotonous DTS in output stream 0:0; previous: 16107480, current: 6484763; changing to 16107481. This may result in incorrect timestamps in the output file. This may result in incorrect timestamps in the output file. Mp4

    #changes to 29. Avi’:
      Metadata:
        ISFT            : Lavf57. This may result in incorrect timestamps in the output file. [mp4 @ 0x32c4ca0] Non-monotonous DTS in output stream 0:0; previous: 16107441, current: 6469163; changing to 16107442. [mp4 @ 0x32c4ca0] Non-monotonous DTS in output stream 0:0; previous: 16107461, current: 6477163; changing to 16107462. This may result in incorrect timestamps in the output file. This may result in incorrect timestamps in the output file. [mp4 @ 0x32c4ca0] Non-monotonous DTS in output stream 0:0; previous: 16107448, current: 6471963; changing to 16107449. This may result in incorrect timestamps in the output file. Mp4

    ffmpeg -i initial.

  7. The best they’ve heard from their current storage vendor of choice is a block size of 8 KB. Which means doubling their storage requirements just to deal with filesystem overhead. Met another guy who was very excited about ZFS, because of an app at his work that writes 4 TB of data in individual 4 KB files.

  8.   You should disable all plugins and then enable one by one until you find the one that is causing the issue. What the issue is, is old plugins that are not compatible but Vbulletin does not seem to account for this except that you’ll see a fatal PHP error.

  9. With Direct Update, Cordova applications can be updated “over-the-air” with refreshed web resources, such as changed, fixed or new applicative logic (JavaScript), HTML, CSS or images. Organizations are thus able to ensure that end-users always use the latest version of the application.

Leave a Reply

Your email address will not be published. Required fields are marked *